<?xml version="1.0" standalone="no"?>
<!DOCTYPE svg PUBLIC "-//W3C//DTD SVG 1.1//EN" "http://www.w3.org/Graphics/SVG/1.1/DTD/svg11.dtd" >
<svg xmlns="http://www.w3.org/2000/svg">
<metadata>Generated by IcoMoon</metadata>
<defs>
<font id="icomoon" horiz-adv-x="1024">
<font-face units-per-em="1024" ascent="960" descent="-64" />
<missing-glyph horiz-adv-x="1024" />
<glyph unicode="&#x20;" d="" />
<glyph unicode="&#x21;" glyph-name="star" d="M988 590c0-8-6-18-16-28l-206-202 48-286c0-2 0-6 0-10 0-8-2-16-6-20-4-6-8-10-16-10s-16 4-24 8l-256 134-256-134c-8-4-16-8-24-8s-14 4-18 10c-4 4-6 12-6 20 0 2 0 6 2 10l48 286-208 202c-8 12-14 20-14 28 0 14 12 24 32 26l288 42 128 260c8 16 16 24 28 24s20-8 28-24l128-260 288-42c20-2 32-12 32-26z" />
<glyph unicode="&#x22;" glyph-name="groups" d="M170 406c48 0 86 38 86 84 0 48-38 86-86 86-46 0-84-38-84-86 0-46 38-84 84-84zM218 358c-14 2-30 4-48 4-42 0-82-8-118-24-32-14-52-44-52-80v-66h192v68c0 36 10 70 26 98zM854 406c46 0 84 38 84 84 0 48-38 86-84 86-48 0-86-38-86-86 0-46 38-84 86-84zM1024 258c0 36-20 66-52 80-36 16-76 24-118 24-18 0-34-2-48-4 16-28 26-62 26-98v-68h192zM692 378c-50 22-110 38-180 38s-130-16-180-38c-46-20-76-66-76-118v-68h512v68c0 52-30 98-76 118zM344 278c4 10 6 16 40 28 40 16 84 24 128 24s88-8 128-24c34-12 36-18 40-28zM512 618c24 0 42-18 42-42s-18-42-42-42c-24 0-42 18-42 42s18 42 42 42M512 704c-70 0-128-58-128-128s58-128 128-128c70 0 128 58 128 128s-58 128-128 128z" />
<glyph unicode="&#x23;" glyph-name="people" d="M384 374c-100 0-298-50-298-150v-74h596v74c0 100-198 150-298 150zM186 234c36 26 122 54 198 54s162-28 198-54zM384 448c82 0 150 66 150 150 0 82-68 148-150 148s-150-66-150-148c0-84 68-150 150-150zM384 662c36 0 64-30 64-64 0-36-28-64-64-64s-64 28-64 64c0 34 28 64 64 64zM684 370c50-36 84-82 84-146v-74h170v74c0 86-148 136-254 146zM640 448c82 0 150 66 150 150 0 82-68 148-150 148-24 0-44-4-64-14 26-38 42-84 42-134s-16-98-42-136c20-8 40-14 64-14z" />
<glyph unicode="&#x24;" glyph-name="person" d="M512 704c46 0 86-38 86-86 0-46-40-84-86-84s-86 38-86 84c0 48 40 86 86 86M512 278c116 0 248-56 256-86h-512c10 30 142 86 256 86M512 790c-94 0-170-78-170-172s76-170 170-170c94 0 170 76 170 170s-76 172-170 172zM512 362c-114 0-342-56-342-170v-86h684v86c0 114-228 170-342 170z" />
<glyph unicode="&#x25;" glyph-name="quote-right1" d="M476 778v-404c0-38-8-76-24-112s-36-68-62-94c-26-26-58-48-94-62-36-16-74-24-114-24h-36c-10 0-18 4-26 12-6 6-10 14-10 24v74c0 10 4 18 10 26 8 6 16 10 26 10h36c42 0 76 14 104 44 28 28 44 62 44 102v20c0 14-6 28-16 38-12 10-24 16-40 16h-128c-30 0-56 10-78 32-20 22-32 48-32 78v220c0 30 12 56 32 76 22 22 48 32 78 32h220c30 0 56-10 78-32 20-20 32-46 32-76zM988 778v-404c0-38-8-76-24-112s-36-68-62-94c-26-26-58-48-94-62-36-16-74-24-114-24h-36c-10 0-18 4-26 12-6 6-10 14-10 24v74c0 10 4 18 10 26 8 6 16 10 26 10h36c42 0 76 14 104 44 28 28 44 62 44 102v20c0 14-6 28-16 38-12 10-24 16-40 16h-128c-30 0-56 10-78 32-20 22-32 48-32 78v220c0 30 12 56 32 76 22 22 48 32 78 32h220c30 0 56-10 78-32 20-20 32-46 32-76z" />
<glyph unicode="&#x26;" glyph-name="quote-left1" d="M476 412v-220c0-30-12-56-32-78-22-22-48-32-78-32h-220c-30 0-56 10-78 32-20 22-32 48-32 78v402c0 40 8 78 24 114s36 66 62 94c26 26 58 46 94 62s74 22 114 22h36c10 0 18-2 26-10 6-8 10-16 10-26v-72c0-10-4-20-10-26-8-8-16-12-26-12h-36c-42 0-76-14-104-42s-44-64-44-104v-18c0-16 6-28 16-38 12-12 24-16 40-16h128c30 0 56-12 78-32 20-22 32-48 32-78zM988 412v-220c0-30-12-56-32-78-22-22-48-32-78-32h-220c-30 0-56 10-78 32-20 22-32 48-32 78v402c0 40 8 78 24 114s36 66 62 94c26 26 58 46 94 62s74 22 114 22h36c10 0 18-2 26-10 6-8 10-16 10-26v-72c0-10-4-20-10-26-8-8-16-12-26-12h-36c-42 0-76-14-104-42s-44-64-44-104v-18c0-16 6-28 16-38 12-12 24-16 40-16h128c30 0 56-12 78-32 20-22 32-48 32-78z" />
<glyph unicode="&#x30;" glyph-name="close-circled" d="M512 894c-248 0-448-200-448-448s200-448 448-448c248 0 448 200 448 448s-200 448-448 448zM728 294c4-2 6-6 6-10s-2-8-6-12l-42-42c-4-4-8-6-12-6s-8 2-10 6l-152 150-150-152c-4-2-8-4-12-4s-8 2-12 4l-42 44c-4 4-4 8-4 12s0 8 4 10l152 152-152 150c-6 6-6 18 0 24l42 42c4 4 8 6 12 6s8-2 10-6l152-148 152 148c2 4 6 6 10 6 6 0 10-2 12-6l44-42c6-6 6-18 0-24l-152-150z" />
<glyph unicode="&#x31;" glyph-name="close" d="M888 186l-264 264 264 260c10 10 10 28 0 38l-74 76c-6 4-14 8-20 8-8 0-14-4-20-8l-262-260-262 260c-6 4-12 8-20 8s-14-4-20-8l-74-76c-10-10-10-28 0-40l264-260-264-262c-4-6-8-12-8-20s4-14 8-20l76-74c6-6 12-8 20-8 6 0 14 2 18 8l262 262 262-262c4-6 12-8 20-8 6 0 14 2 18 8l76 74c4 6 8 12 8 20s-4 14-8 20z" />
<glyph unicode="&#x32;" glyph-name="glass" d="M1024 564c-70 16-140 42-210 40-42 0-82-6-122-14-46-6-90-24-136-30-14-2-28-2-44-2-14 0-30 0-44 2-46 6-90 24-134 30-42 8-82 14-122 14-72 2-142-24-210-40 0-24-6-54 6-72 10-16 28-32 32-56 12-56 28-112 48-164 10-26 28-44 50-56 50-30 108-34 164-24 78 12 120 82 152 160 12 32 14 70 30 100 6 10 16 12 28 10 12 2 22 0 28-10 16-30 18-68 30-100 32-78 74-148 152-160 56-10 114-6 164 24 22 12 40 30 50 56 20 52 36 108 48 164 4 24 22 40 32 56 12 18 8 48 8 72zM408 340c-38-96-108-116-160-116-20 0-40 4-62 10-38 10-66 42-80 90-18 62-26 112-24 158 4 58 56 70 116 78 26 4 48 6 68 6v0c28 0 48-2 68-6 56-16 90-34 102-62 14-32 6-78-28-158zM918 324c-14-48-42-80-80-90-22-6-42-10-62-10-52 0-122 20-160 116-34 80-42 126-28 158 14 28 46 46 102 60 20 6 42 8 68 8v0c20 0 42-2 70-6 58-8 110-20 114-78 2-46-6-96-24-158z" />
<glyph unicode="&#x33;" glyph-name="bars" d="M950 192v-74c0-10-2-18-10-24-8-8-16-12-26-12h-804c-10 0-18 4-26 12-8 6-10 14-10 24v74c0 10 2 18 10 26 8 6 16 10 26 10h804c10 0 18-4 26-10 8-8 10-16 10-26zM950 484v-72c0-10-2-20-10-26-8-8-16-12-26-12h-804c-10 0-18 4-26 12-8 6-10 16-10 26v72c0 10 2 20 10 26 8 8 16 12 26 12h804c10 0 18-4 26-12 8-6 10-16 10-26zM950 778v-74c0-10-2-18-10-26-8-6-16-10-26-10h-804c-10 0-18 4-26 10-8 8-10 16-10 26v74c0 10 2 18 10 24 8 8 16 12 26 12h804c10 0 18-4 26-12 8-6 10-14 10-24z" />
<glyph unicode="&#x34;" glyph-name="refresh" d="M936 356c0-2 0-2 0-4-24-102-76-184-154-248-76-64-168-94-272-94-56 0-110 10-162 30-52 22-98 52-138 90l-74-74c-8-6-16-10-26-10s-18 4-26 10c-8 8-10 16-10 26v256c0 10 2 18 10 26s16 10 26 10h256c10 0 18-2 26-10 6-8 10-16 10-26s-4-18-10-26l-78-78c26-24 56-44 92-58 34-14 70-20 106-20 52 0 98 12 142 36 46 26 80 60 108 102 4 8 14 30 30 68 2 8 8 12 16 12h110c6 0 10 0 14-4 2-4 4-8 4-14zM950 814v-256c0-10-2-18-10-26s-16-10-26-10h-256c-10 0-18 2-26 10-6 8-10 16-10 26s4 18 10 26l80 78c-56 52-124 78-200 78-52 0-98-12-142-36-46-26-80-60-108-102-4-8-14-30-30-68-2-8-8-12-16-12h-114c-6 0-10 0-14 4-2 4-4 8-4 14v4c24 102 76 184 154 248s170 94 274 94c56 0 110-10 162-30 52-22 100-52 140-90l74 74c8 6 16 10 26 10s18-4 26-10c8-8 10-16 10-26z" />
<glyph unicode="&#x35;" glyph-name="play-video" d="M876 134c28 0 50 22 50 52v524c0 30-22 52-50 52h-728c-28 0-50-22-50-52v-524c0-30 22-52 50-52zM824 236h-624v424h624zM664 446l-122-72-124-70v282l124-70z" />
<glyph unicode="&#x36;" glyph-name="notification" d="M522-10c0 6-4 10-10 10-22 0-42 8-58 24s-24 36-24 58c0 6-4 10-10 10s-8-4-8-10c0-28 10-52 28-70 20-20 44-30 72-30 6 0 10 2 10 8zM140 156h744c-102 114-152 272-152 474 0 20-6 40-14 60-10 22-22 42-40 60-16 18-40 34-70 46-28 12-60 18-96 18s-68-6-96-18c-30-12-54-28-70-46-18-18-30-38-40-60-8-20-14-40-14-60 0-202-50-360-152-474zM988 156c0-20-8-38-22-52s-32-22-52-22h-256c0-40-14-74-42-104-30-28-64-42-104-42s-74 14-104 42c-28 30-42 64-42 104h-256c-20 0-38 8-52 22s-22 32-22 52c20 16 36 32 52 50s32 40 50 68c16 28 30 58 42 90s20 72 28 118c8 46 12 96 12 148 0 58 22 112 66 162s104 80 176 90c-4 8-4 16-4 24 0 14 4 28 16 38 10 10 22 16 38 16s28-6 38-16c12-10 16-24 16-38 0-8 0-16-4-24 72-10 132-40 176-90s66-104 66-162c0-52 4-102 12-148s16-86 28-118c12-32 26-62 42-90 18-28 34-50 50-68s32-34 52-50z" />
<glyph unicode="&#x37;" glyph-name="pro-tip" d="M640 630c0-4-2-8-6-12s-8-6-12-6c-6 0-10 2-14 6-2 4-4 8-4 12 0 18-10 32-32 42-20 8-40 14-60 14-4 0-10 2-12 6-4 2-6 8-6 12s2 10 6 12c2 4 8 6 12 6 20 0 38-2 56-8 20-6 36-18 50-32s22-32 22-52zM732 630c0 28-8 54-20 78-14 24-30 42-52 58-20 14-44 26-70 34-26 10-52 14-78 14s-52-4-78-14c-26-8-50-20-70-34-22-16-38-34-52-58-12-24-20-50-20-78 0-38 14-72 40-102 4-4 10-10 16-18 8-10 14-16 18-20 50-58 76-114 80-170h132c4 56 30 112 80 170 4 4 10 10 18 20 6 8 12 14 16 18 26 30 40 64 40 102zM804 630c0-58-20-110-58-152-18-18-32-36-42-50-12-14-24-32-34-54-12-22-18-42-20-62 18-10 26-26 26-46 0-14-4-28-14-38 10-10 14-22 14-36 0-20-8-36-26-46 6-10 8-18 8-28 0-16-6-30-18-40s-26-14-44-14c-8-16-20-30-34-40-16-10-32-14-50-14s-34 4-50 14c-14 10-26 24-34 40-18 0-32 4-44 14s-18 24-18 40c0 10 2 18 8 28-18 10-26 26-26 46 0 14 4 26 14 36-10 10-14 24-14 38 0 20 8 36 26 46-2 20-8 40-20 62-10 22-22 40-34 54-10 14-24 32-42 50-38 42-58 94-58 152 0 38 8 74 24 106 18 32 40 60 68 82 28 20 58 38 94 50 34 12 70 18 106 18s72-6 106-18c36-12 66-30 94-50 28-22 50-50 68-82 16-32 24-68 24-106z" />
<glyph unicode="&#x38;" glyph-name="exclamation" d="M622 246v-128c0-10-4-18-12-24-6-8-14-12-24-12h-148c-10 0-18 4-24 12-8 6-12 14-12 24v128c0 10 4 20 12 26 6 8 14 12 24 12h148c10 0 18-4 24-12 8-6 12-16 12-26zM638 850l-16-438c0-10-4-20-10-26-8-8-16-12-26-12h-148c-10 0-18 4-26 12-6 6-10 16-10 26l-16 438c-2 10 2 18 10 26 6 8 14 10 24 10h184c10 0 18-2 24-10 8-8 12-16 10-26z" />
<glyph unicode="&#x39;" glyph-name="exclamation-circle" d="M512 886c80 0 154-18 220-58 68-40 120-92 160-160 40-66 58-140 58-220s-18-154-58-220c-40-68-92-120-160-160-66-40-140-58-220-58s-154 18-220 58c-68 40-120 92-160 160-40 66-58 140-58 220s18 154 58 220c40 68 92 120 160 160 66 40 140 58 220 58zM586 174v108c0 6-2 10-6 14s-8 6-12 6h-110c-6 0-10-2-14-6s-6-8-6-14v-108c0-4 2-10 6-12 4-4 8-6 14-6h110c4 0 8 2 12 4 4 4 6 8 6 14zM584 370l10 356c0 4-2 8-6 10-4 4-8 4-14 4h-124c-6 0-10 0-14-4-4-2-6-6-6-10l10-356c0-2 2-6 6-10 2-2 8-4 12-4h106c6 0 10 2 14 4 4 4 6 8 6 10z" />
<glyph unicode="&#x41;" glyph-name="number-none" d="M512 704c-46 0-78-18-98-58s-30-102-30-188c0-86 10-150 30-188 20-40 52-60 98-60 44 0 76 20 98 60 20 40 30 102 30 188s-10 148-30 188c-22 38-54 58-98 58zM512 960c-282 0-512-230-512-512s230-512 512-512c282 0 512 230 512 512s-230 512-512 512zM660 228c-32-50-82-76-148-76-64 0-114 26-146 78-34 52-50 128-50 228 0 104 16 180 48 230s82 76 148 76c64 0 112-26 146-80 34-52 50-128 50-226 0-102-16-180-48-230zM512 764c-66 0-116-26-148-76s-48-126-48-230c0-100 16-176 50-228 32-52 82-78 146-78 66 0 116 26 148 76s48 128 48 230c0 98-16 174-50 226-34 54-82 80-146 80zM610 270c-22-40-54-60-98-60-46 0-78 20-98 60-20 38-30 102-30 188s10 148 30 188c20 40 52 58 98 58 44 0 76-20 98-58 20-40 30-102 30-188s-10-148-30-188z" />
<glyph unicode="&#x42;" glyph-name="number-0" d="M504 704c-46 0-78-18-98-58s-30-102-30-188c0-86 10-150 30-188 20-40 52-60 98-60 44 0 76 20 98 60 20 40 30 102 30 188s-10 148-30 188c-22 38-54 58-98 58zM512 960c-282 0-512-230-512-512s230-512 512-512c282 0 512 230 512 512s-230 512-512 512zM652 228c-32-50-82-76-148-76-64 0-114 26-146 78-34 52-50 128-50 228 0 104 16 180 48 230s82 76 148 76c64 0 112-26 146-80 34-52 50-128 50-226 0-102-16-180-48-230z" />
<glyph unicode="&#x43;" glyph-name="number-1" d="M512 960c-282 0-512-230-512-512s230-512 512-512c282 0 512 230 512 512s-230 512-512 512zM550 160h-66v424c0 34 2 68 4 100-6-6-12-12-20-18-6-6-40-34-96-80l-36 46 158 122h56z" />
<glyph unicode="&#x44;" glyph-name="number-2" d="M512 960c-282 0-512-230-512-512s230-512 512-512c282 0 512 230 512 512s-230 512-512 512zM698 160h-390v58l156 158c48 48 80 82 94 102 16 22 28 42 36 60 6 20 10 42 10 64 0 32-10 56-28 74-20 20-46 28-80 28-26 0-48-4-70-12s-48-22-74-44l-36 46c54 46 114 68 178 68 56 0 100-14 132-42s48-68 48-116c0-38-12-74-32-112-22-36-60-82-118-140l-130-126v-4h304v-62z" />
<glyph unicode="&#x45;" glyph-name="number-3" d="M512 960c-282 0-512-230-512-512s230-512 512-512c282 0 512 230 512 512s-230 512-512 512zM644 198c-40-30-96-46-168-46-30 0-60 2-86 6-26 6-52 14-76 26v64c26-12 54-22 82-28 30-8 56-10 82-10 104 0 154 40 154 120 0 72-56 108-168 108h-60v58h60c46 0 82 10 110 30 28 22 40 50 40 86 0 28-10 52-30 68s-46 24-80 24c-26 0-50-2-74-10-22-6-50-20-78-38l-34 44c24 20 52 36 84 46s64 16 100 16c58 0 102-12 134-40 32-26 48-62 48-108 0-38-10-68-32-92-20-24-50-42-90-50v-2c48-6 84-22 106-46 24-24 34-56 34-96 0-56-18-100-58-130z" />
<glyph unicode="&#x46;" glyph-name="policy-a" d="M512 960c-282 0-512-230-512-512s230-512 512-512c282 0 512 230 512 512s-230 512-512 512zM708 162l-74 190h-238l-74-190h-70l234 596h60l232-596zM514 684c-6-26-14-60-24-92l-70-188h192l-70 188c-8 24-18 58-28 92z" />
<glyph unicode="&#x47;" glyph-name="policy-b" d="M606 524c22 14 34 40 34 76 0 34-12 56-36 72-24 14-62 20-114 20h-108v-192h120c48 0 84 8 104 24zM512 960c-282 0-512-230-512-512s230-512 512-512c282 0 512 230 512 512s-230 512-512 512zM676 206c-36-30-86-44-150-44h-208v592h168c80 0 136-10 172-34 34-24 52-62 52-112 0-36-10-64-28-88-20-22-50-36-86-44v-4c90-16 134-62 134-142 0-54-18-94-54-124zM620 414c-26 16-64 22-114 22h-124v-224h130c48 0 84 14 108 32s36 48 36 88c0 36-12 64-36 82z" />
<glyph unicode="&#x48;" glyph-name="enhanced-payment" d="M510 954c-154 0-278-126-278-278 0-154 124-280 278-280s278 126 278 280c0 152-124 278-278 278zM624 516h-242v34c32 8 48 30 48 68v52h-46v30h46v74c0 28 8 50 26 66s42 24 72 24c28 0 56-8 84-20l-14-32c-24 12-48 18-70 18-20 0-34-4-44-14s-14-26-14-48v-68h98v-30h-98v-52c0-16-2-28-8-38-6-12-14-20-24-28h186v-36zM970 466l-182-10c-22 0-28-14-12-30l54-56c0 0 0 0 0 0l-210-210c-6-6-18-6-24 0l-130 130c-8 8-18 18-24 24-16 16-42 42-58 58-6 6-18 6-24 0l-342-344c-8-6-8-16 0-24l56-56c6-8 18-8 24 0l262 262c6 6 18 6 24 0l206-206c6-8 14-14 16-16 0 0 8 4 14 10l290 290c2 2 2 2 2 2l54-54c16-16 30-12 32 10l10 182c2 24-16 40-38 38z" />
<glyph unicode="&#x49;" glyph-name="check" d="M954 636c0-14-4-28-16-38l-490-492c-12-10-24-16-40-16-14 0-28 6-38 16l-284 284c-12 12-16 24-16 40 0 14 4 28 16 38l76 78c12 10 24 16 40 16 14 0 28-6 38-16l168-168 376 376c10 10 24 16 38 16 16 0 28-6 40-16l76-78c12-12 16-24 16-40z" />
<glyph unicode="&#x4a;" glyph-name="arrow-circle-left" d="M804 412v72c0 10-4 20-10 26-8 8-16 12-26 12h-286l108 108c6 6 10 14 10 24s-4 20-10 26l-52 52c-8 8-16 10-26 10s-20-2-26-10l-208-206-52-52c-6-8-10-16-10-26s4-18 10-26l52-52 208-206c6-8 16-10 26-10s18 2 26 10l52 52c6 6 10 14 10 26 0 10-4 18-10 24l-108 108h286c10 0 18 4 26 12 6 6 10 16 10 26zM950 448c0-80-18-154-58-220-40-68-92-120-160-160-66-40-140-58-220-58s-154 18-220 58c-68 40-120 92-160 160-40 66-58 140-58 220s18 154 58 220c40 68 92 120 160 160 66 40 140 58 220 58s154-18 220-58c68-40 120-92 160-160 40-66 58-140 58-220z" />
<glyph unicode="&#x4b;" glyph-name="thumbs-o-up" d="M220 192c0 10-4 18-12 26-6 6-16 10-26 10s-18-4-24-10c-8-8-12-16-12-26s4-18 12-26c6-6 14-10 24-10s20 4 26 10c8 8 12 16 12 26zM878 522c0 18-8 36-22 50-16 14-32 22-52 22h-200c0 22 8 52 26 92 20 38 28 68 28 92 0 36-6 64-18 82s-36 26-74 26c-10-10-16-26-20-48-6-22-12-46-18-72-8-24-18-46-34-62-8-8-24-26-44-52-2-2-6-8-14-18-6-8-12-16-18-22-4-6-10-14-20-24-8-10-16-20-22-26s-14-14-22-20c-8-8-16-12-22-16-8-4-16-4-22-4h-18v-366h18c6 0 12-2 18-2 8-2 14-2 20-4s12-4 22-6c8-4 16-6 20-6 4-2 10-4 20-8 8-4 14-6 16-6 80-28 146-42 196-42h68c74 0 110 32 110 96 0 10 0 20-2 32 12 6 20 16 26 30 8 14 10 28 10 42s-2 26-10 40c20 18 30 40 30 68 0 8-2 20-4 30-4 12-10 22-16 28 14 0 24 10 32 26 8 18 12 34 12 48zM950 522c0-34-8-66-28-94 4-12 6-26 6-38 0-30-8-58-22-84 2-8 2-16 2-24 0-38-12-72-34-102 0-52-16-94-48-124-34-32-76-46-130-46h-74c-36 0-72 4-108 12s-78 22-124 38c-44 14-70 22-80 22h-164c-20 0-38 8-52 22s-20 32-20 52v366c0 20 6 36 20 50 14 16 32 22 52 22h156c14 10 40 38 80 88 22 30 42 54 60 74 10 10 16 26 20 48 4 24 10 48 18 74 8 24 20 44 36 60 14 14 32 22 50 22 32 0 62-6 88-18 24-12 44-32 58-58 12-26 20-62 20-106 0-36-10-72-28-110h100c40 0 74-16 104-44 28-28 42-64 42-102z" />
<glyph unicode="&#x4c;" glyph-name="edit" d="M768 896l-128-128 192-192 128 128zM64 192v-192h192l512 512-192 192zM256 64h-128v128h64v-64h64z" />
<glyph unicode="&#x4d;" glyph-name="home" d="M842 394v-276c0-10-4-18-12-24-6-8-16-12-26-12h-218v220h-148v-220h-218c-10 0-20 4-26 12-8 6-12 14-12 24v276c0 0 0 0 0 0 0 2 0 2 0 2l328 272 330-272c0 0 0-2 0-2zM968 432l-34-42c-4-4-8-6-12-6h-2c-6 0-10 2-12 4l-396 330-396-330c-4-4-8-4-14-4-4 0-8 2-12 6l-34 42c-4 4-4 8-4 14s2 10 6 12l410 342c12 10 28 16 44 16s32-6 44-16l138-116v112c0 4 2 10 6 12 4 4 8 6 14 6h108c6 0 10-2 14-6 4-2 6-8 6-12v-234l124-104c4-2 6-6 6-12s0-10-4-14z" />
<glyph unicode="&#x4e;" glyph-name="minus-square-o" d="M768 502v-36c0-6-2-10-6-12-2-4-6-6-12-6h-476c-6 0-10 2-12 6-4 2-6 6-6 12v36c0 6 2 10 6 14 2 4 6 6 12 6h476c6 0 10-2 12-6 4-4 6-8 6-14zM842 246v476c0 26-10 46-28 64s-40 28-64 28h-476c-24 0-46-10-64-28s-28-38-28-64v-476c0-24 10-46 28-64s40-26 64-26h476c24 0 46 8 64 26s28 40 28 64zM914 722v-476c0-44-16-84-48-116s-70-48-116-48h-476c-46 0-84 16-116 48s-48 72-48 116v476c0 46 16 84 48 116s70 48 116 48h476c46 0 84-16 116-48s48-70 48-116z" />
<glyph unicode="&#x4f;" glyph-name="minus" d="M914 540v-110c0-16-6-28-16-40-10-10-24-16-38-16h-696c-14 0-28 6-38 16-10 12-16 24-16 40v110c0 14 6 28 16 38s24 16 38 16h696c14 0 28-6 38-16s16-24 16-38z" />
<glyph unicode="&#x50;" glyph-name="list-bullet" d="M908 754h-640c-18 0-34-16-34-36v-32c0-18 16-34 34-34h640c20 0 36 16 36 34v32c0 20-16 36-36 36zM908 498h-640c-18 0-34-14-34-34v-32c0-20 16-34 34-34h640c20 0 36 14 36 34v32c0 20-16 34-36 34zM908 244h-640c-18 0-34-16-34-34v-32c0-20 16-36 34-36h640c20 0 36 16 36 36v32c0 18-16 34-36 34zM182 702c0-28-22-50-50-50s-52 22-52 50c0 30 24 52 52 52s50-22 50-52zM182 458c0-28-22-50-50-50s-52 22-52 50c0 28 24 52 52 52s50-24 50-52zM182 194c0-30-22-52-50-52s-52 22-52 52c0 28 24 50 52 50s50-22 50-50z" />
<glyph unicode="&#x51;" glyph-name="angle-left" d="M688 650c0-6-2-10-6-14l-224-224 224-226c4-2 6-8 6-12 0-6-2-10-6-14l-28-28c-4-4-10-6-14-6s-10 2-14 6l-266 266c-4 4-6 8-6 14 0 4 2 8 6 12l266 266c4 4 10 6 14 6s10-2 14-6l28-28c4-4 6-8 6-12z" />
<glyph unicode="&#x52;" glyph-name="circle" d="M950 448c0-80-18-154-58-220-40-68-92-120-160-160-66-40-140-58-220-58s-154 18-220 58c-68 40-120 92-160 160-40 66-58 140-58 220s18 154 58 220c40 68 92 120 160 160 66 40 140 58 220 58s154-18 220-58c68-40 120-92 160-160 40-66 58-140 58-220z" />
<glyph unicode="&#x53;" glyph-name="child" d="M826 646l-168-166v-470c0-18-6-34-18-46-14-12-28-18-46-18s-32 6-44 18c-14 12-20 28-20 46v218h-36v-218c0-18-6-34-20-46-12-12-26-18-44-18s-32 6-46 18c-12 12-18 28-18 46v470l-168 166c-10 12-16 24-16 40 0 14 6 28 16 38 12 12 24 16 40 16 14 0 28-4 38-16l130-130h212l130 130c10 12 24 16 38 16 16 0 28-4 40-16 10-10 16-24 16-38 0-16-6-28-16-40zM640 740c0-34-12-66-38-90-24-24-54-38-90-38s-66 14-90 38c-26 24-38 56-38 90 0 36 12 66 38 92 24 24 54 36 90 36s66-12 90-36c26-26 38-56 38-92z" />
<glyph unicode="&#x54;" glyph-name="recent" d="M512 920c130 0 240-48 332-140s140-202 140-332c0-130-48-240-140-332s-202-140-332-140c-130 0-240 48-332 140s-140 202-140 332c0 130 48 240 140 332s202 140 332 140M512 80c102 0 190 36 262 108 70 72 106 158 106 260s-36 190-106 262c-72 70-160 106-262 106s-188-36-260-106c-72-72-108-160-108-262s36-188 108-260c72-72 158-108 260-108M548 714c0 0 0-250 0-250s154-154 154-154c0 0-50-50-50-50s-174 174-174 174c0 0 0 280 0 280s70 0 70 0" />
<glyph unicode="&#x55;" glyph-name="completed" d="M806 540c0 12-2 20-10 26l-52 52c-6 8-16 12-26 12s-18-4-24-12l-234-232-130 128c-6 8-14 12-24 12s-20-4-26-12l-52-50c-8-8-10-16-10-26 0-12 2-20 10-26l206-208c8-6 16-10 26-10s20 4 26 10l310 310c8 8 10 16 10 26zM950 448c0-80-18-154-58-220-40-68-92-120-160-160-66-40-140-58-220-58s-154 18-220 58c-68 40-120 92-160 160-40 66-58 140-58 220s18 154 58 220c40 68 92 120 160 160 66 40 140 58 220 58s154-18 220-58c68-40 120-92 160-160 40-66 58-140 58-220z" />
<glyph unicode="&#x56;" glyph-name="delete" d="M402 540v-330c0-6-2-10-4-12-4-4-8-6-14-6h-36c-6 0-10 2-14 6-4 2-4 6-4 12v330c0 4 0 10 4 12 4 4 8 6 14 6h36c6 0 10-2 14-6 2-2 4-8 4-12zM548 540v-330c0-6-2-10-4-12-4-4-8-6-14-6h-36c-6 0-10 2-14 6-2 2-4 6-4 12v330c0 4 2 10 4 12 4 4 8 6 14 6h36c6 0 10-2 14-6 2-2 4-8 4-12zM694 540v-330c0-6 0-10-4-12-4-4-8-6-14-6h-36c-6 0-10 2-14 6-2 2-4 6-4 12v330c0 4 2 10 4 12 4 4 8 6 14 6h36c6 0 10-2 14-6 4-2 4-8 4-12zM768 126v542h-512v-542c0-8 2-16 4-24 2-6 6-12 8-14 4-4 6-6 6-6h476c0 0 2 2 6 6 2 2 6 8 8 14 2 8 4 16 4 24zM384 740h256l-28 68c-2 2-6 4-10 6h-180c-4-2-8-4-10-6zM914 722v-36c0-6-2-10-4-14-4-2-8-4-14-4h-54v-542c0-32-10-60-28-82-18-24-40-34-64-34h-476c-24 0-46 10-64 32s-28 50-28 82v544h-54c-6 0-10 2-14 4-2 4-4 8-4 14v36c0 6 2 10 4 14 4 2 8 4 14 4h176l40 96c6 14 16 26 32 36 14 10 30 14 44 14h184c14 0 30-4 44-14 16-10 26-22 32-36l40-96h176c6 0 10-2 14-4 2-4 4-8 4-14z" />
<glyph unicode="&#x57;" glyph-name="in-progress" d="M878 886c0-98-20-186-62-262-40-78-90-136-152-176 62-40 112-98 152-176 42-76 62-164 62-262h54c6 0 10-2 14-6s4-8 4-14v-36c0-6 0-10-4-12-4-4-8-6-14-6h-840c-6 0-10 2-14 6-4 2-4 6-4 12v36c0 6 0 10 4 14s8 6 14 6h54c0 98 20 186 62 262 40 78 90 136 152 176-62 40-112 98-152 176-42 76-62 164-62 262h-54c-6 0-10 2-14 6s-4 8-4 14v36c0 6 0 10 4 12 4 4 8 6 14 6h840c6 0 10-2 14-6 4-2 4-6 4-12v-36c0-6 0-10-4-14s-8-6-14-6zM804 886h-584c0-78 16-150 48-218h488c32 68 48 140 48 218zM772 192c-20 54-48 100-84 138-34 38-72 66-110 82h-132c-38-16-76-44-110-82-36-38-64-84-84-138z" />
<glyph unicode="&#x58;" glyph-name="calendar-o" d="M110 10h804v584h-804zM330 704v164c0 6-2 10-6 14s-8 4-14 4h-36c-6 0-10 0-12-4-4-4-6-8-6-14v-164c0-6 2-10 6-14 2-2 6-4 12-4h36c6 0 10 2 14 4 4 4 6 8 6 14zM768 704v164c0 6-2 10-6 14-2 4-6 4-12 4h-36c-6 0-10 0-14-4s-6-8-6-14v-164c0-6 2-10 6-14 4-2 8-4 14-4h36c6 0 10 2 12 4 4 4 6 8 6 14zM988 740v-730c0-20-8-38-22-52s-32-22-52-22h-804c-20 0-38 8-52 22s-22 32-22 52v730c0 20 8 38 22 52s32 22 52 22h72v54c0 26 10 48 28 66s40 26 64 26h36c26 0 48-8 66-26s26-40 26-66v-54h220v54c0 26 8 48 26 66s40 26 66 26h36c24 0 46-8 64-26s28-40 28-66v-54h72c20 0 38-8 52-22s22-32 22-52z" />
<glyph unicode="&#x59;" glyph-name="search" d="M694 484c0 72-24 132-74 182s-110 74-182 74c-70 0-130-24-180-74s-76-110-76-182c0-70 26-130 76-180s110-76 180-76c72 0 132 26 182 76s74 110 74 180zM988 10c0-20-8-38-22-52s-32-22-52-22c-20 0-38 8-52 22l-196 196c-68-48-144-72-228-72-54 0-106 10-156 32s-92 50-128 86c-36 36-64 78-86 128-20 50-32 102-32 156 0 56 12 108 32 156 22 50 50 94 86 130s78 64 128 86c50 20 102 30 156 30 56 0 108-10 158-30 48-22 92-50 128-86s64-80 86-130c20-48 32-100 32-156 0-84-24-160-72-228l196-196c14-14 22-30 22-50z" />
<glyph unicode="&#x5a;" glyph-name="view" d="M512 832c-282 0-512-380-512-380s230-388 512-388c282 0 512 388 512 388s-230 380-512 380zM512 192c-142 0-256 114-256 256s114 256 256 256c142 0 256-114 256-256s-114-256-256-256zM640 448c0-72-58-128-128-128s-128 56-128 128c0 70 58 128 128 128s128-58 128-128z" />
<glyph unicode="&#x61;" glyph-name="chevron-down" d="M962 498l-424-424c-8-6-16-10-26-10s-18 4-26 10l-424 424c-6 8-10 16-10 26s4 20 10 26l96 94c6 8 14 12 24 12s20-4 26-12l304-302 304 302c6 8 16 12 26 12s18-4 24-12l96-94c6-6 10-16 10-26s-4-18-10-26z" />
<glyph unicode="&#x62;" glyph-name="chevron-right" d="M778 458l-424-424c-6-6-14-10-24-10s-20 4-26 10l-96 96c-6 6-10 16-10 26s4 18 10 26l304 302-304 304c-6 8-10 16-10 26s4 18 10 26l96 94c6 8 16 12 26 12s18-4 24-12l424-424c8-6 12-16 12-26s-4-18-12-26z" />
<glyph unicode="&#x63;" glyph-name="chevron-left" d="M816 788l-304-304 304-302c6-8 10-16 10-26s-4-20-10-26l-96-96c-6-6-16-10-26-10s-18 4-24 10l-424 424c-8 8-12 16-12 26s4 20 12 26l424 424c6 8 14 12 24 12s20-4 26-12l96-94c6-8 10-16 10-26s-4-18-10-26z" />
<glyph unicode="&#x64;" glyph-name="chevron-up" d="M962 200l-96-94c-6-8-14-12-24-12s-20 4-26 12l-304 302-304-302c-6-8-16-12-26-12s-18 4-24 12l-96 94c-6 6-10 16-10 26s4 18 10 26l424 422c8 8 16 12 26 12s18-4 26-12l424-422c6-8 10-16 10-26s-4-20-10-26z" />
<glyph unicode="&#x65;" glyph-name="additional-payment" d="M554 828c-6 0-12-6-12-14 0 0 0 0 0-2v0-322c0-6 6-12 12-12h322c2 0 2 0 2 0 8 0 14 6 14 12-2 186-152 336-338 338zM814 412c0 8-6 14-14 14h-296c-8 0-14 6-14 14v294c0 2 0 2 0 2 0 8-6 14-12 14-2 0-2 0-2 0v0c0 0-2 0-4 0-188 0-340-152-340-342 0-188 152-340 340-340 190 0 342 152 342 340 0 2 0 4 0 4s0 0 0 0z" />
<glyph unicode="&#x66;" glyph-name="angle-up" d="M798 284c0-6-2-10-6-14l-30-28c-2-4-8-6-12-6-6 0-10 2-14 6l-224 224-224-224c-4-4-8-6-14-6-4 0-10 2-12 6l-30 28c-4 4-6 8-6 14 0 4 2 8 6 12l266 266c4 4 10 6 14 6s10-2 14-6l266-266c4-4 6-8 6-12z" />
<glyph unicode="&#x67;" glyph-name="angle-right" d="M670 412c0-6-2-10-6-14l-266-266c-4-4-10-6-14-6s-10 2-14 6l-28 28c-4 4-6 8-6 14 0 4 2 10 6 12l224 226-224 224c-4 4-6 8-6 14 0 4 2 8 6 12l28 28c4 4 10 6 14 6s10-2 14-6l266-266c4-4 6-8 6-12z" />
<glyph unicode="&#x68;" glyph-name="angle-down" d="M798 540c0-6-2-10-6-14l-266-266c-4-4-10-6-14-6s-10 2-14 6l-266 266c-4 4-6 8-6 14 0 4 2 8 6 12l30 30c2 2 8 4 12 4 6 0 10-2 14-4l224-226 224 226c4 2 8 4 14 4 4 0 10-2 12-4l30-30c4-4 6-8 6-12z" />
<glyph unicode="&#x69;" glyph-name="arrow-circle-right" d="M808 448c0 10-4 18-10 26l-52 52-208 206c-6 8-16 10-26 10s-18-2-26-10l-52-52c-6-6-10-14-10-26 0-10 4-18 10-24l108-108h-286c-10 0-18-4-26-12-6-6-10-16-10-26v-72c0-10 4-20 10-26 8-8 16-12 26-12h286l-108-108c-6-6-10-14-10-24s4-20 10-26l52-52c8-8 16-10 26-10s20 2 26 10l208 206 52 52c6 8 10 16 10 26zM950 448c0-80-18-154-58-220-40-68-92-120-160-160-66-40-140-58-220-58s-154 18-220 58c-68 40-120 92-160 160-40 66-58 140-58 220s18 154 58 220c40 68 92 120 160 160 66 40 140 58 220 58s154-18 220-58c68-40 120-92 160-160 40-66 58-140 58-220z" />
<glyph unicode="&#x6a;" glyph-name="file-pdf-o" d="M912 742c10-10 20-24 28-42s10-36 10-50v-660c0-14-4-28-16-38-10-10-22-16-38-16h-768c-16 0-28 6-38 16-12 10-16 24-16 38v916c0 14 4 28 16 38 10 10 22 16 38 16h512c16 0 32-4 50-12s34-16 44-26zM658 882v-214h216c-4 10-8 18-14 22l-178 180c-4 4-12 8-24 12zM878 10v584h-238c-16 0-28 6-38 16-12 10-16 24-16 40v236h-440v-876zM584 348c12-10 28-20 48-32 22 2 44 4 66 4 56 0 90-10 102-28 6-8 6-18 2-30 0 0-2 0-2 0v-2c-2-16-16-22-42-22-18 0-40 4-64 12-26 6-52 16-76 30-84-10-158-26-224-48-58-100-104-150-138-150-6 0-10 2-16 4l-14 8c0 0 0 0-2 2-4 4-6 10-4 20 4 16 14 34 32 52 18 20 44 38 76 56 4 4 10 2 12-4 2 0 2 0 2-2 20 32 40 70 60 112 26 52 46 102 60 150-8 32-14 62-18 92-2 30 0 54 4 72 4 16 12 24 24 24h14c8 0 14-4 20-10 6-8 8-20 4-38 0-2-2-4-2-4 0-2 0-4 0-6v-16c0-48-2-84-8-110 22-62 50-108 84-136zM254 114c20 8 46 38 80 90-20-16-36-32-50-48-14-18-24-32-30-42zM482 638c-6-16-6-40 0-74 0 2 0 10 4 24 0 2 0 10 4 26 0 0 0 2 2 4 0 0-2 0-2 0 0 2 0 2 0 2s0 0 0 0c0 8-2 16-8 22 0-2 0-2 0-2zM412 262c50 20 104 36 162 46-2 0-4 2-8 4-4 4-6 6-8 8-30 26-54 60-74 102-10-34-26-72-46-114-12-20-20-36-26-46zM780 270c-8 10-36 14-80 14 30-10 54-16 72-16 4 0 8 0 10 0 0 0 0 2-2 2z" />
<glyph unicode="&#x6b;" glyph-name="category-closed" d="M804 412v72c0 10-4 20-10 26-8 8-16 12-26 12h-182v182c0 10-4 18-12 26-6 6-16 10-26 10h-72c-10 0-20-4-26-10-8-8-12-16-12-26v-182h-182c-10 0-18-4-26-12-6-6-10-16-10-26v-72c0-10 4-20 10-26 8-8 16-12 26-12h182v-182c0-10 4-18 12-26 6-6 16-10 26-10h72c10 0 20 4 26 10 8 8 12 16 12 26v182h182c10 0 18 4 26 12 6 6 10 16 10 26zM950 722v-548c0-46-16-84-48-116s-70-48-116-48h-548c-46 0-84 16-116 48s-48 70-48 116v548c0 46 16 84 48 116s70 48 116 48h548c46 0 84-16 116-48s48-70 48-116z" />
<glyph unicode="&#x6c;" glyph-name="category-open" d="M804 412v72c0 10-4 20-10 26-8 8-16 12-26 12h-512c-10 0-18-4-26-12-6-6-10-16-10-26v-72c0-10 4-20 10-26 8-8 16-12 26-12h512c10 0 18 4 26 12 6 6 10 16 10 26zM950 722v-548c0-46-16-84-48-116s-70-48-116-48h-548c-46 0-84 16-116 48s-48 70-48 116v548c0 46 16 84 48 116s70 48 116 48h548c46 0 84-16 116-48s48-70 48-116z" />
<glyph unicode="&#x6d;" glyph-name="info" d="M506 920c130 0 240-44 334-134 92-90 140-200 144-330 0-130-44-242-136-334-90-94-200-142-330-146-130 0-242 44-334 136-94 90-142 200-144 330s42 242 134 334c92 94 202 142 332 144M560 764c-30 0-52-8-68-26-16-16-24-32-24-50 0-20 4-34 16-46 12-10 28-16 50-16 26 0 48 8 62 22 16 16 24 34 24 56 0 40-20 60-60 60M436 156c20 0 50 8 86 26 38 18 74 44 108 80 0 0-18 24-18 24-32-24-56-36-74-36-8 0-10 12-4 38 0 0 44 164 44 164 18 66 10 98-22 98-22 0-52-10-92-30s-80-44-118-76c0 0 16-26 16-26 36 22 62 34 76 34 8 0 8-12 0-34 0 0-36-156-36-156-18-72-6-106 34-106" />
<glyph unicode="&#x6e;" glyph-name="plus-square-o" d="M768 502v-36c0-6-2-10-6-12-2-4-6-6-12-6h-202v-202c0-4-2-8-4-12-4-4-8-6-14-6h-36c-6 0-10 2-14 6-2 4-4 8-4 12v202h-202c-6 0-10 2-12 6-4 2-6 6-6 12v36c0 6 2 10 6 14 2 4 6 6 12 6h202v200c0 6 2 10 4 14 4 2 8 4 14 4h36c6 0 10-2 14-4 2-4 4-8 4-14v-200h202c6 0 10-2 12-6 4-4 6-8 6-14zM842 246v476c0 26-10 46-28 64s-40 28-64 28h-476c-24 0-46-10-64-28s-28-38-28-64v-476c0-24 10-46 28-64s40-26 64-26h476c24 0 46 8 64 26s28 40 28 64zM914 722v-476c0-44-16-84-48-116s-70-48-116-48h-476c-46 0-84 16-116 48s-48 72-48 116v476c0 46 16 84 48 116s70 48 116 48h476c46 0 84-16 116-48s48-70 48-116z" />
<glyph unicode="&#x6f;" glyph-name="beneficial-condition" d="M182 192c0 10-2 18-10 26-8 6-16 10-26 10s-18-4-26-10c-6-8-10-16-10-26s4-18 10-26c8-8 16-10 26-10s18 2 26 10c8 8 10 16 10 26zM274 484v-366c0-10-4-18-10-24-8-8-16-12-26-12h-164c-10 0-20 4-26 12-8 6-12 14-12 24v366c0 10 4 20 12 26 6 8 16 12 26 12h164c10 0 18-4 26-12 6-6 10-16 10-26zM950 484c0-32-10-60-30-84 6-18 8-32 8-44 2-28-8-56-24-78 6-22 6-44 0-68-6-20-16-38-32-52 4-44-6-78-28-104-24-30-62-44-112-44h-74c-24 0-52 2-82 8s-52 12-70 16c-16 6-38 14-68 24-48 16-78 24-90 24-10 0-20 4-26 12-8 6-12 14-12 24v368c0 8 4 16 12 24 6 8 14 10 24 12 8 0 24 12 44 34 18 22 38 44 56 68 26 34 46 56 58 70 8 6 14 16 18 26 6 12 8 22 10 28 2 8 4 18 8 34 2 16 6 28 8 36s4 18 10 30c6 10 12 20 20 28 6 8 16 10 26 10 16 0 32-2 46-6s26-8 34-14c10-6 18-14 24-24 6-8 10-18 14-24 2-8 4-18 6-30 2-10 2-20 4-26 0-4 0-12 0-22 0-14-2-28-6-42-4-16-8-26-10-36-4-8-10-18-16-32-2-2-4-4-6-10-2-4-6-8-6-12-2-4-4-8-6-14h160c28 0 54-10 76-32s32-48 32-78z" />
<glyph unicode="&#x70;" glyph-name="phone" d="M914 252c0-10-2-24-6-40-4-18-8-30-12-40-8-20-30-40-70-60-34-20-70-30-106-30-10 0-20 0-30 2s-20 4-32 8c-12 2-22 6-28 8s-16 6-32 12c-14 6-24 8-28 10-36 14-70 28-100 48-48 30-98 70-150 122s-94 102-124 152c-18 28-34 62-46 100-2 2-6 12-12 28-4 14-8 26-10 32s-6 14-10 26c-2 12-4 24-6 34-2 8-2 18-2 30 0 34 10 70 28 106 22 38 42 62 62 70 8 4 22 8 38 12 18 2 30 4 40 4 6 0 10 0 12 0 8-4 18-18 32-44 4-8 10-18 16-32 8-12 14-24 20-36 6-10 12-20 18-30 2-2 4-6 10-14s10-16 12-20c2-6 4-12 4-16 0-8-6-18-16-30-10-10-22-22-36-30-12-10-24-20-34-32-12-10-18-18-18-26 0-2 2-8 4-12 2-6 4-10 4-12 2-2 4-8 8-14s6-10 8-10c28-52 62-98 98-134 38-38 82-72 134-100 2 0 6-2 12-6s10-8 14-8c2-2 6-4 12-6 4-2 8-2 12-2 6 0 16 4 26 16 10 10 22 22 30 36 10 12 20 24 32 34 12 12 20 16 28 16 6 0 12 0 16-4 6-2 14-6 22-12 8-4 12-8 14-10 8-6 20-12 30-18s22-12 36-20c14-6 24-12 32-16 26-14 40-24 42-30 2-4 2-8 2-12z" />
<glyph unicode="&#x71;" glyph-name="twitter" d="M962 726c-26-36-56-68-92-94 0-6 0-14 0-24 0-50-6-100-22-148-14-50-36-98-66-142-28-46-64-86-104-122-42-34-90-62-148-82-58-22-120-32-184-32-104 0-198 28-284 84 14-2 28-4 44-4 86 0 162 28 230 80-40 0-76 12-108 36s-54 54-66 92c14-2 26-4 36-4 16 0 32 2 48 8-42 8-78 30-106 62-28 34-42 74-42 118v2c26-14 54-22 84-22-26 16-46 38-60 64-16 28-22 58-22 88 0 34 8 66 24 94 46-56 102-102 168-136s138-54 214-58c-4 16-6 30-6 44 0 50 18 94 54 130s80 54 132 54c52 0 98-20 134-58 42 8 80 22 118 44-14-44-42-78-82-102 36 4 70 14 106 28z" />
<glyph unicode="&#x72;" glyph-name="linkedin" d="M272 602v-566h-188v566zM284 778c0-28-8-52-28-70s-46-28-78-28v0c-32 0-58 10-76 28-20 18-28 42-28 70s8 52 28 70c20 18 46 28 78 28s56-10 76-28c18-18 28-42 28-70zM950 362v-326h-188v304c0 40-6 70-22 94-16 22-40 34-72 34-24 0-44-8-60-20-18-14-30-30-38-50-4-10-6-26-6-46v-316h-188c2 152 2 276 2 370s0 152 0 170l-2 26h188v-82c8 12 14 24 22 32 8 10 20 20 34 30 12 10 30 20 48 26 20 6 42 8 66 8 66 0 118-22 158-64 40-44 58-108 58-190z" />
<glyph unicode="&#x73;" glyph-name="download" d="M990 292c14-6 22-18 28-32 6-16 8-30 4-42 0 0-28-158-28-158-4-12-12-24-24-32-12-10-26-14-40-14 0 0-836 0-836 0-16 0-28 4-42 14-12 8-18 20-22 32 0 0-28 158-28 158-8 34 4 58 32 74 0 0 162 110 162 110s100 0 100 0c0 0-174-132-174-132s182 0 182 0c6 0 10-2 14-8 0 0 40-114 40-114s308 0 308 0c0 0 40 114 40 114 6 6 10 8 12 8 0 0 182 0 182 0s-174 132-174 132c0 0 102 0 102 0s162-110 162-110M778 622c0 0-266-250-266-250s-266 250-266 250c0 0 170 0 170 0s0 262 0 262c0 0 194 0 194 0s0-262 0-262c0 0 168 0 168 0" />
<glyph unicode="&#x74;" glyph-name="phone-square" d="M804 278c0 4 0 8 0 10-2 2-10 8-22 16-14 8-30 18-52 28l-30 18c-2 0-4 2-10 6s-10 8-14 10c-4 2-8 2-12 2-8 0-16-6-28-18-10-12-22-26-32-38s-20-18-26-18c-2 0-4 0-8 2-4 0-8 2-10 2-2 2-4 4-10 6-4 2-6 4-8 6-36 20-70 44-96 72-28 26-52 60-72 96-2 2-4 4-6 8-2 6-4 8-6 10 0 2-2 6-2 10-2 4-2 6-2 8 0 6 4 12 10 20 8 8 18 16 26 22 10 6 18 14 26 22s12 16 12 22c0 4 0 8-2 12s-6 8-10 14c-4 6-6 8-6 10-2 2-4 8-10 16-4 10-8 18-14 26-4 10-10 18-14 28-6 10-10 18-16 24-4 6-6 8-8 10-2 0-6 0-10 0-18 0-38-4-58-12-16-8-32-26-46-54-12-28-18-52-18-74 0-6 0-14 0-20 2-6 2-12 4-18 0-4 2-10 4-18 4-8 6-14 6-18 2-2 4-8 8-18s6-14 6-18c22-62 64-122 124-182s120-102 182-124c4 0 8-2 18-6s16-6 18-8c4 0 10-2 18-6 8-2 14-4 18-4 6-2 12-2 18-4 6 0 14 0 20 0 22 0 46 6 74 18 28 14 46 30 54 46 8 20 12 40 12 58zM950 722v-548c0-46-16-84-48-116s-70-48-116-48h-548c-46 0-84 16-116 48s-48 70-48 116v548c0 46 16 84 48 116s70 48 116 48h548c46 0 84-16 116-48s48-70 48-116z" />
<glyph unicode="&#x75;" glyph-name="mail" d="M82 690c-22 12-32 26-28 40 0 10 10 14 26 14 0 0 866 0 866 0 26 0 32-10 20-32-4-10-12-16-24-22-10-4-76-40-196-104-122-66-184-100-186-102-12-6-28-10-48-10s-34 4-48 10c-2 2-64 36-186 102-120 64-186 100-196 104M952 588c14 6 20 2 20-10 0 0 0-378 0-378 0-10-4-22-16-32-12-12-24-16-34-16 0 0-820 0-820 0-10 0-22 4-34 16-10 10-16 22-16 32 0 0 0 378 0 378 0 12 6 16 20 10 0 0 392-206 392-206 14-6 28-10 48-10s34 4 48 10c0 0 392 206 392 206" />
<glyph unicode="&#x76;" glyph-name="plus" d="M914 540v-110c0-16-6-28-16-40-10-10-24-16-38-16h-238v-236c0-16-6-30-16-40s-24-16-40-16h-108c-16 0-30 6-40 16s-16 24-16 40v236h-238c-14 0-28 6-38 16-10 12-16 24-16 40v110c0 14 6 28 16 38s24 16 38 16h238v238c0 16 6 28 16 38 10 12 24 16 40 16h108c16 0 30-4 40-16 10-10 16-22 16-38v-238h238c14 0 28-6 38-16s16-24 16-38z" />
<glyph unicode="&#x77;" glyph-name="square" d="M950 722v-548c0-46-16-84-48-116s-70-48-116-48h-548c-46 0-84 16-116 48s-48 70-48 116v548c0 46 16 84 48 116s70 48 116 48h548c46 0 84-16 116-48s48-70 48-116z" />
<glyph unicode="&#x78;" glyph-name="client" d="M512 320c0 0-342 0-470-298 0 0 214-86 470-86s470 86 470 86c-128 298-470 298-470 298zM512 362c128 0 214 128 214 342s-214 214-214 214c0 0-214 0-214-214s86-342 214-342z" />
<glyph unicode="&#x79;" glyph-name="female" d="M512 888c-156 0-282-126-282-282 0-138 98-252 228-278v-90h-120v-108h120v-122h108v122h120v108h-120v90c130 26 228 140 228 278 0 156-126 282-282 282zM512 776c94 0 170-76 170-170s-76-170-170-170c-94 0-170 76-170 170s76 170 170 170z" />
<glyph unicode="&#x7a;" glyph-name="male" d="M606 888v-122h132l-176-176c-48 32-108 50-170 50-176 0-316-140-316-316 0-174 140-316 316-316 174 0 316 142 316 316 0 68-20 128-56 180l174 172v-132h122c0 108 0 236 0 344zM392 514c104 0 188-86 188-190s-84-188-188-188c-104 0-190 84-190 188s86 190 190 190z" />
<glyph unicode="&#xe900;" glyph-name="multiple-severity-payments1" horiz-adv-x="1152" d="M608 480v478.8c10.6 0.8 21.2 1.2 32 1.2 247.4 0 448-200.6 448-448 0-10.8-0.4-21.4-1.2-32h-478.8zM64 416c0 254.4 197.8 462.4 448 479v-511l338-338c-83-68.8-189.6-110-306-110-265 0-480 214.8-480 480zM640 384h511c-9-135.8-74.4-256.2-173-338l-338 338z" />
<glyph unicode="&#xe901;" glyph-name="heart-light" d="M924.6 834.6c-109 92.8-272 77.4-373.2-27l-39.4-40.8-39.4 40.6c-81.6 84.4-246.2 135.2-373.2 27.2-125.6-107.2-132.2-299.6-19.8-415.6l387-399.6c12.4-12.8 28.8-19.4 45.2-19.4s32.8 6.4 45.2 19.4l387 399.6c112.8 116 106.2 308.4-19.4 415.6zM898.4 463.4l-385.6-399.6-387.2 399.6c-76.8 79.2-92.8 230.2 15.4 322.4 109.6 93.6 238.4 25.8 285.6-23l85.4-88.2 85.4 88.2c46.4 48 176.4 116 285.6 23 108-92 92.2-243 15.4-322.4z" />
<glyph unicode="&#xe902;" glyph-name="policy-highlight" d="M692 170.667l-48 206 160 138-210 18-82 192-82-194-210-16 160-138-48-206 180 108zM512 852.667q176 0 301-125t125-301-125-301-301-125-301 125-125 301 125 301 301 125z" />
<glyph unicode="&#xe903;" glyph-name="chart" d="M726 212.667v172h-86v-172h86zM554 212.667v428h-84v-428h84zM384 212.667v300h-86v-300h86zM810 810.667q34 0 60-26t26-60v-596q0-34-26-60t-60-26h-596q-34 0-60 26t-26 60v596q0 34 26 60t60 26h596z" />
<glyph unicode="&#xe904;" glyph-name="added-value" d="M896 960h-768c-70.6 0-128-57.4-128-128v-576c0-70.6 57.4-128 128-128h192v-168c0-19.6 22.4-31 38.2-19.4l249.8 187.4h288c70.6 0 128 57.4 128 128v576c0 70.6-57.4 128-128 128zM736 528c0-17.6-14.4-32-32-32h-144v-144c0-17.6-14.4-32-32-32h-32c-17.6 0-32 14.4-32 32v144h-144c-17.6 0-32 14.4-32 32v32c0 17.6 14.4 32 32 32h144v144c0 17.6 14.4 32 32 32h32c17.6 0 32-14.4 32-32v-144h144c17.6 0 32-14.4 32-32v-32z" />
<glyph unicode="&#xe905;" glyph-name="heart-solid" d="M924.6 834.8c-109.6 93.4-272.6 76.6-373.2-27.2l-39.4-40.6-39.4 40.6c-100.4 103.8-263.6 120.6-373.2 27.2-125.6-107.2-132.2-299.6-19.8-415.8l387-399.6c25-25.8 65.6-25.8 90.6 0l387 399.6c112.6 116.2 106 308.6-19.6 415.8z" />
<glyph unicode="&#xe906;" glyph-name="partial-severity-payments" d="M512 32c229.8 0 416 186.2 416 416 0 2.8 0 5.8 0 8.6-9.2-5.4-20.2-8.6-32-8.6h-320c-35.4 0-64 28.6-64 64v320c0 11.6 3.2 22.6 8.6 32-2.8 0-5.8 0-8.6 0-229.8 0-416-186.2-416-416s186.2-416 416-416zM512 960c282.8 0 512-229.2 512-512s-229.2-512-512-512-512 229.2-512 512 229.2 512 512 512z" />
<glyph unicode="&#xe907;" glyph-name="multiple-partial-severity-payments" horiz-adv-x="1152" d="M1083.4 576c1.6-10.6 2.6-21.2 3.4-32 0.8-10.6 1.2-21.2 1.2-32s-0.4-21.4-1.2-32h-478.8v478.8c10.6 0.8 21.2 1.2 32 1.2s21.4-0.4 32-1.2c10.8-0.8 21.4-2 32-3.4 196.2-28 351.4-183.2 379.4-379.4zM704 858.2v-282.2h282.2c-26.2 143-139.2 256-282.2 282.2zM416 344.2v434c-149.2-52.8-256-195-256-362.2 0-212 172-384 384-384 54.4 0 106 11.2 152.8 31.6l-280.8 280.6zM781.6 114.4l68.4-68.4c-25-20.8-52.4-39-81.4-54.4-67-35.4-143.4-55.6-224.6-55.6-265 0-480 214.8-480 480 0 220.8 149 406.8 352 462.8 30.8 8.6 63 14 96 16.2v-511l269.6-269.6zM640 384h511c-9-135.8-74.4-256.2-173-338l-338 338z" />
<glyph unicode="&#xe908;" glyph-name="severity-payment" d="M990.8 480h-446.8v446.8c0 18 14 33.2 32 33.2 247.4 0 448-200.6 448-448 0-18-15.2-32-33.2-32zM380.4 885.6c36.2 7.6 67.6-22 67.6-59v-442.6h442.6c37 0 66.6-31.4 59-67.6-45.8-217.4-238.6-380.4-469.6-380.4-265 0-480 214.8-480 480 0 231 163 423.8 380.4 469.6z" />
<glyph unicode="&#xe909;" glyph-name="megaphone" horiz-adv-x="1150" d="M1083.767 65.494c0-18.368-14.105-63.751-63.751-63.751-14.48-0.011-28.532 4.907-39.844 13.946l-169.339 135.471c-68.419 54.549-150.352 89.519-237.074 101.185v454.963c86.721 11.67 168.653 46.639 237.074 101.185l169.339 135.57c11.307 9.048 25.363 13.968 39.844 13.946 49.805 0 63.751-46.339 63.751-63.751v-828.763zM1083.767 589.686v-219.622c39.422 22.506 63.755 64.417 63.755 109.811s-24.333 87.305-63.755 109.811zM0 575.502v-191.253c0-70.417 57.085-127.502 127.502-127.502h67.138c-2.85-21.131-4.301-42.428-4.343-63.751-0.015-76.582 17.398-152.162 50.921-221.017 10.34-21.297 32.911-33.987 56.579-33.987h147.982c51.897 0 83.056 59.448 51.598 100.727-33.845 44.305-52.154 98.524-52.096 154.277 0.066 21.547 3.021 42.989 8.786 63.751h55.941v446.257h-382.506c-70.417 0-127.502-57.085-127.502-127.502z" />
<glyph unicode="&#xe90a;" glyph-name="congenital" d="M512 576h-511.8c5.2 148.2 82.4 278.2 197.8 355.8 26.6 17.8 61.6 8.6 79.8-17.6l234.2-338.2zM768 640c0 70.6 57.4 128 128 128h64c35.4 0 64-28.6 64-64s-28.6-64-64-64h-64v-128c0-50.4-11.6-100.4-34-147s-55.6-89-97.2-124.6-91-64-145.4-83.2-112.6-29.2-171.4-29.2-117 10-171.4 29.2-103.8 47.6-145.4 83.2-74.6 78-97.2 124.6-34 96.6-34 147h768v128zM160 128c53.019 0 96-42.981 96-96s-42.981-96-96-96v0c-53.019 0-96 42.981-96 96s42.981 96 96 96v0zM640 32c0 53.019 42.981 96 96 96s96-42.981 96-96v0c0-53.019-42.981-96-96-96s-96 42.981-96 96v0z" />
<glyph unicode="&#xe90b;" glyph-name="sliders" d="M0 128c0-26.6 21.4-48 48-48h119.4c20.4-65 81-112 152.6-112s132.2 47 152.6 112h503.4c26.6 0 48 21.4 48 48s-21.4 48-48 48h-503.4c-20.4 65-81 112-152.6 112s-132.2-47-152.6-112h-119.4c-26.6 0-48-21.4-48-48zM256 128c0 35.346 28.654 64 64 64s64-28.654 64-64v0c0-35.346-28.654-64-64-64s-64 28.654-64 64v0zM640 448c0 35.346 28.654 64 64 64s64-28.654 64-64v0c0-35.346-28.654-64-64-64s-64 28.654-64 64v0zM704 608c-71.6 0-132.2-47-152.6-112h-503.4c-26.6 0-48-21.4-48-48s21.4-48 48-48h503.4c20.4-65 81-112 152.6-112s132.2 47 152.6 112h119.4c26.6 0 48 21.4 48 48s-21.4 48-48 48h-119.4c-20.4 65-81 112-152.6 112zM384 704c-35.346 0-64 28.654-64 64s28.654 64 64 64v0c35.346 0 64-28.654 64-64s-28.654-64-64-64v0zM536.6 816c-20.4 65-81 112-152.6 112s-132.2-47-152.6-112h-183.4c-26.6 0-48-21.4-48-48s21.4-48 48-48h183.4c20.4-65 81-112 152.6-112s132.2 47 152.6 112h439.4c26.6 0 48 21.4 48 48s-21.4 48-48 48h-439.4z" />
<glyph unicode="&#xf085;" glyph-name="custom-quote" horiz-adv-x="1097" d="M512 438.857c0 80.571-65.714 146.286-146.286 146.286s-146.286-65.714-146.286-146.286 65.714-146.286 146.286-146.286 146.286 65.714 146.286 146.286zM950.857 146.286c0 40-33.143 73.143-73.143 73.143s-73.143-33.143-73.143-73.143c0-40.571 33.143-73.143 73.143-73.143 40.571 0 73.143 33.143 73.143 73.143zM950.857 731.428c0 40-33.143 73.143-73.143 73.143s-73.143-33.143-73.143-73.143c0-40.571 33.143-73.143 73.143-73.143 40.571 0 73.143 33.143 73.143 73.143zM731.429 490.857v-105.714c0-7.429-5.714-16-13.143-17.143l-88.571-13.714c-4.571-14.857-10.857-29.143-18.286-43.429 16-22.857 33.143-44 51.429-65.714 2.286-3.429 4-6.857 4-11.429 0-4-1.143-8-4-10.857-11.429-15.429-75.429-85.143-92-85.143-4.571 0-8.571 1.714-12 4l-65.714 51.429c-14.286-7.429-28.571-13.143-44-17.714-2.857-29.143-5.714-60.571-13.143-88.571-2.286-8-9.143-13.714-17.143-13.714h-106.286c-8 0-16 6.286-17.143 14.286l-13.143 87.429c-14.857 4.571-29.143 10.857-42.857 17.714l-67.429-50.857c-2.857-2.857-7.429-4-11.429-4-4.571 0-8.571 1.714-12 4.571-14.857 13.714-82.286 74.857-82.286 91.429 0 4 1.714 7.429 4 10.857 16.571 21.714 33.714 42.857 50.286 65.143-8 15.429-14.857 30.857-20 46.857l-86.857 13.714c-8 1.143-13.714 8.571-13.714 16.571v105.714c0 7.429 5.714 16 13.143 17.143l88.571 13.714c4.571 14.857 10.857 29.143 18.286 43.429-16 22.857-33.143 44-51.429 65.714-2.286 3.429-4 7.429-4 11.429s1.143 8 4 11.429c11.429 15.429 75.429 84.571 92 84.571 4.571 0 8.571-1.714 12-4l65.714-51.429c14.286 7.429 28.571 13.143 44 18.286 2.857 28.571 5.714 60 13.143 88 2.286 8 9.143 13.714 17.143 13.714h106.286c8 0 16-6.286 17.143-14.286l13.143-87.429c14.857-4.571 29.143-10.857 42.857-17.714l67.429 50.857c3.429 2.857 7.429 4 11.429 4 4.571 0 8.571-1.714 12-4.571 14.857-13.714 82.286-75.429 82.286-91.429 0-4-1.714-7.429-4-10.857-16.571-22.286-33.714-42.857-49.714-65.143 7.429-15.429 14.286-30.857 19.429-46.857l86.857-13.143c8-1.714 13.714-9.143 13.714-17.143zM1097.143 186.286v-80c0-8.571-73.714-16.571-85.143-17.714-4.571-10.857-10.286-20.571-17.143-29.714 5.143-11.429 29.143-68.571 29.143-78.857 0-1.714-0.571-2.857-2.286-4-6.857-4-68-40.571-70.857-40.571-7.429 0-50.286 57.143-56 65.714-5.714-0.571-11.429-1.143-17.143-1.143s-11.429 0.571-17.143 1.143c-5.714-8.571-48.571-65.714-56-65.714-2.857 0-64 36.571-70.857 40.571-1.714 1.143-2.286 2.857-2.286 4 0 9.714 24 67.429 29.143 78.857-6.857 9.143-12.571 18.857-17.143 29.714-11.429 1.143-85.143 9.143-85.143 17.714v80c0 8.571 73.714 16.571 85.143 17.714 4.571 10.286 10.286 20.571 17.143 29.714-5.143 11.429-29.143 69.143-29.143 78.857 0 1.143 0.571 2.857 2.286 4 6.857 3.429 68 40 70.857 40 7.429 0 50.286-56.571 56-65.143 5.714 0.571 11.429 1.143 17.143 1.143s11.429-0.571 17.143-1.143c16 22.286 33.143 44.571 52.571 64l3.429 1.143c2.857 0 64-36 70.857-40 1.714-1.143 2.286-2.857 2.286-4 0-10.286-24-67.429-29.143-78.857 6.857-9.143 12.571-19.429 17.143-29.714 11.429-1.143 85.143-9.143 85.143-17.714zM1097.143 771.428v-80c0-8.571-73.714-16.571-85.143-17.714-4.571-10.857-10.286-20.571-17.143-29.714 5.143-11.429 29.143-68.571 29.143-78.857 0-1.714-0.571-2.857-2.286-4-6.857-4-68-40.571-70.857-40.571-7.429 0-50.286 57.143-56 65.714-5.714-0.571-11.429-1.143-17.143-1.143s-11.429 0.571-17.143 1.143c-5.714-8.571-48.571-65.714-56-65.714-2.857 0-64 36.571-70.857 40.571-1.714 1.143-2.286 2.857-2.286 4 0 9.714 24 67.429 29.143 78.857-6.857 9.143-12.571 18.857-17.143 29.714-11.429 1.143-85.143 9.143-85.143 17.714v80c0 8.571 73.714 16.571 85.143 17.714 4.571 10.286 10.286 20.571 17.143 29.714-5.143 11.429-29.143 69.143-29.143 78.857 0 1.143 0.571 2.857 2.286 4 6.857 3.429 68 40 70.857 40 7.429 0 50.286-56.571 56-65.143 5.714 0.571 11.429 1.143 17.143 1.143s11.429-0.571 17.143-1.143c16 22.286 33.143 44.571 52.571 64l3.429 1.143c2.857 0 64-36 70.857-40 1.714-1.143 2.286-2.857 2.286-4 0-10.286-24-67.429-29.143-78.857 6.857-9.143 12.571-19.429 17.143-29.714 11.429-1.143 85.143-9.143 85.143-17.714z" />
</font>
</defs>
</svg>
